Легенда №17. Х/ф / Смотреть онлайн / Russia.tv

russia.tv

«Легенда №17. Х/ф», художественный - смотрите онлайн на официальном сайте телеканала «Россия» - Russia.tv.

Легенда № 17 — Википедия

ru.wikipedia.org

«Леге́нда № 17» — российский художественный фильм 2013 года режиссёра Николая .... Легенда No. 17 (2013) — Box office / business; ↑ Filmz. ru: ...

Subtitles » Субтитры - переводы к фильмам, сериалам и аниме

subs.com.ru

Русские субтитры к фильмам, сериалам, аниме. Английские субтитры к русским фильмам, избранным иностранным фильмам, аниме и ... 31.07 Legend

FanSerials.tv - Лучшие сериалы смотреть онлайн!

fanserials.tv

Лучшие зарубежные сериалы онлайн во всех озвучках, с субтитрами и в оригинале. ... Легенды завтрашнего дня. 6.37.2. Увидев будущее, которого ...

Английские фильмы с субтитрами и не только! | ВКонтакте

vk.com

Английские фильмы с субтитрами и не только! ... Дата основания: 17 сентября 2012 .... 8. 2. 4 июн в 17:59 .... The Legend of Bagger Vance 2000. Показать ...

Легенда №17 (2013) смотреть онлайн бесплатно в хорошем ...

baskino.club

Легенда №17 смотреть онлайн бесплатно HD качество ... Смотрите онлайн фильм «Легенда №17» в хорошем HD качестве на нашем сайте, бесплатно ...

Король обезьян: Начало / The Monkey King the Legend Begins ...

rutracker.org

25 апр 2016 ... Король обезьян: Начало / The Monkey King the Legend Begins / The ... Cубтитры: английские, русские (Игра21), русские (Алексей ... Формат субтитров: softsub (SRT) ... Forced : No ... Stream size : 1.26 GiB (17%)

Сериал Легенда об Искателе/Legend of the Seeker 1 сезон онлайн

seasonvar.ru

Сериал Легенда об Искателе/Legend of the Seeker 2 сезон (04.08.2016 ) ..... Мне доставил удовольствие просмотр всех 17 частей, глядел их и не мог ...

Аватар: Легенда о Корре / The Legend of Korra / Книга 1: Воздух ...

rutracker.org

5 авг 2013 ... RuTracker.org » Аватар » Скачать торрент Аватар: Легенда о Корре / The Legend of Korra / Книга ... Субтитры: русские [Korra-Avatar] , английские -Все раздачи мультсериала- ... Writing application : mkvmerge v5.8.0 ('No Sleep / Pillow') built on Sep 2 2012 15:37:04 ... Stream size : 261 MiB (17%)

Седая Легенда. Фильм. Историко-приключенченский - YouTube

www.youtube.com

21 май 2015 ... Смотреть онлайн бесплатно "Седая Легенда" ... новинки кино, фильмы с русскими и английскими субтитрами — смотреть ... No mature content .... 1:17: 02. Государственная граница (Фильм 1, серия 2) (1980) фильм ...

Легенда №17 / Legenda No. 17 (2013) - Русские субтитры

subtitry.ru

Легенда №17. IMDB: 2182001. Кинопоиск: 601564. Английское название: Legenda No. 17.

"Legenda No. 17" субтитры - SubtitleBox.org

subtitlebox.org

Все языки азербайджанский албанский английский арабский армянский африкаанс баскский бенгальский болгарский боснийский бретонский венгерский вьетнамский гавайский галисийский голландский

Сайт где можно посмотреть фильм "Легенда #17" на английском...

qq.by

Какой бы фильм на английском языке посмотреть?

Смотреть фильм Легенда (Legend) на английском языке...

voriginale.tv

Криминальный фильм Легенда, появившийся в 2015 году на английском с субтитрами, поведает телезрителям историю братьев-близнецов по фамилии Крэй. Они возглавляли известную группировку бандитов туманного Альбиона середины 20-го века.

Ответы@Mail.Ru: Подскажите где можно либо скачать...

otvet.mail.ru

...либо скачать, или посмотреть фильм Легенда 17 На английском языке либо с английскими субтитрами?

Фильмы на английском языке с английскими субтитрами...

filmsubs.blogspot.ru

пятница, 10 августа 2012 г. Legends of the Fall - Легенды осени. Фильм на английском языке с английскими субтитрами Movie in english language with english subtitles.

Легенда №17 | Русские субтитры

subhit.ru

Сбылась его мечта -упорство, спортивный талант и суровые уроки великого тренера Анатолия Тарасова сделали из «номера 17» легенду мирового хоккея. Выпущено: Россия Продолжительность: 02:13:53 Скачать субтитры.

Легенда №17 (2013) смотреть онлайн в хорошем качестве

filmsegodnya.online

Специально для тех кто не любит смотреть фильмы в не очень хорошем переводе мы предоставляем возможность просмотра фильмов на английском или оригинал с субтитрами.

легенда 17 с английскими субтитрами смотреть онлайн

kivvi.kz

...17 с английскими субтитрами легенда 17 английские субтитры легенда 17 смотреть онлайн с английскими субтитрами легенда номер 17 английские субтитры легенда no 17 английские субтитры скачать легенда 17 с английскими субтитрами легенда no 17 с...

Legenda No. 17 субтитры | 11 субтитры

www.opensubtitles.org

Director: Nikolay Lebedev. Starring: Danila Kozlovsky, Darya Ekamasova, Anna Arshava and others.

Поиск реализован с помощью Yandex XML и Google Custom Search API