Live Streaming / Broadcast Live Video — WordPress Plugins

ru.wordpress.org

Live video streaming, webcam broadcasting app and player with chat, ... UStream tv, Mogulus, LiveStream, RealLifeCam, Stickam, YouNow, Blog tv, Live yahoo ...

мои журналы - YouTube

www.youtube.com

Aug 10, 2012 ... Оздоровительный Массаж и развивающая Гимнастика для вашего ребенка. Massage for Children: How To. - Duration: 10:18.

Carito Sotomayor | VK

vk.com

... pinned post. 4 Apr 2012. Actions. Report. http://www.stickam.com/ this page is very fun and interesting :) Live Stream Video Chat | Stickam www.stickam.com ...

Облако тегов » Webtun - Обозреватель интернета.

webtun.com

... Live streaming, LiveDrive, LiveJournal, LiveJournal Maps, LiveMinutes, LiveRail, .... stickam, stickr, stock, stock photos, storage, Strata40, StrataBuddy, stream, ...

Liveoncam

www.liveoncam.biz

Обзор прямых видео трансляций и веб чатов со всего мира в режиме реального времени.

WebcamMax 8.0.3.6 + Portable | Скачать свежий портативный ...

noby.ucoz.ru

2 дн. назад ... ... ICQ, AIM, MSN, Camfrog, Skype, Paltalk, Yahoo, ANYwebcam, Stickam. ... Stream videos, movies, flash, desktop screen, pictures to virtual ...

Экшн камера F23, незамеченный клон SJ4000.

mysku.ru

Stream size: 47.3 MiB (92%) Language: English Encoded date: UTC 2004-01-01 00:00:00 ... Stream size: 1.65 MiB (3%) Language: English Encoded date: UTC ...

Сервисы похожие на Photofunia.ru | Авторские уроки Adobe ...

www.blogohelp.ru

Аватар пользователя Stream. Stream (не проверено) Ср, 17/12/2008 - 12:06. Отличная подборка. Еще есть хороший сервис www.funphotobox.comтам ...

Wunf — BIQLE Видео

biqle.ru

Чешская модель Veronika на секс кастинге | CzechCasting, CzechAv, Amateur, Teen, Blowjob, Joleyn Burst, WUNF, anal. Lovenia Lux and Arwen Gold ...

WebcamMax 7.9.5.2 скачать на dreamprogs.net

dreamprogs.net

Программу можно использовать по умолчанию в таких приложениях, как ICQ, AIM, MSN, Camfrog, Skype, Paltalk, Yahoo, ANYwebcam, Stickam. Можно ...

Stickam - Wikipedia

en.wikipedia.org

Stickam was a live-streaming video website that launched in 2005. Stickam featured user-submitted pictures, audio, video, and most prominently, live streaming video chat. The site quickly expanded to include live shows and produced content from MTV, G4 TV, CBS Radio, NATPE...

Index page | Forum

www.amateurteens.co

Amateur Teen Videos

Stickam

www.stickam.com

Social networking site with an emphasis on video and live chat.

Stickam

mashable.com

Live video streaming service Stickam is expanding into mobile, announcing today that users will now be able to stream videos to their account with a cell phone.

Stickam | crunchbase

www.crunchbase.com

Stickam.com is a social networking site that focuses on live video streaming.

13 Popular Sites Like Stickam (Updated: Jan 5th, 2017) | moreofit.com

www.moreofit.com

You're looking for other sites like Stickam: Stickam - The Live Community. Broadcast yourself live.

Scene Kids Cry As Streaming Site Stickam Shuts Down | TechCrunch

techcrunch.com

Since 2005, Stickam has been a haven for misfit youth, emo bands, and anyone else in need of a live-streaming video blog channel to share their lives.

Stickam Teams With Vans Warped Tour for Live Backstage Coverage...

www.rankinsider.com

running samproof search serve service setitoff sites social stabcast start stickam stream streamed streaming submitted summer teams teenspot their through throughout tuned updates users using...

Audio/video stream recording forums threads tagged with stickam

stream-recorder.com

Recording Stickam streams with Replay Media Catcher. mudcebo.

Stickam - Wikipedia Republished // WIKI 2 | Stream API

en.wiki2.org

Stickam's player and live stream abilities are recognized in a Variety Magazine article as a "more customizable player" that has the ability to engage fans in a powerful way using their virtual...

Комментарии:

Наша группа ВК:

Поиск реализован с помощью Yandex XML и Google Custom Search API